<?xml version="1.0" standalone="no"?>
<!DOCTYPE svg PUBLIC "-//W3C//DTD SVG 1.1//EN" "http://www.w3.org/Graphics/SVG/1.1/DTD/svg11.dtd" >
<svg>
<metadata>
Created by FontForge 20090622 at Thu Mar 10 02:15:40 2016
 By deploy user
</metadata>
<defs>
<font id="SourceHanSansTW-Normal-Alphabetic" horiz-adv-x="1000" vert-adv-y="1000" >
  <font-face 
    font-family="SourceHanSansTW-Normal-Alphabetic"
    font-weight="400"
    font-stretch="normal"
    units-per-em="1000"
    panose-1="2 0 5 3 0 0 0 0 0 0"
    ascent="800"
    descent="-200"
    bbox="32 -251 966 808"
    underline-thickness="50"
    underline-position="-100"
  />
<missing-glyph horiz-adv-x="364" 
d="M33 0v666h265v-666h-265zM66 33h199v600h-199v-600z" />
    <glyph glyph-name=".notdef" horiz-adv-x="364" 
d="M33 0v666h265v-666h-265zM66 33h199v600h-199v-600z" />
    <glyph glyph-name=".null" horiz-adv-x="0" vert-adv-y="0" 
 />
    <glyph glyph-name="nonmarkingreturn" horiz-adv-x="333" 
 />
    <glyph glyph-name="Identity.59024" 
d="M738 0l-87 230h-318l-86 -230h-87l284 733h99l285 -733h-90zM354 294h278l-47 124l-90 247h-4q-17 -50 -50 -139l-40 -108z" />
    <glyph glyph-name="Identity.59025" 
d="M243 0v733h245q138 0 208 -43t70 -137q0 -56 -30.5 -98.5t-89.5 -60.5v-4q79 -13 123 -58.5t44 -117.5q0 -111 -74.5 -162.5t-229.5 -51.5h-266zM325 418h145q111 0 162 30t51 95q0 67 -48.5 96t-154.5 29h-155v-250zM325 66h172q123 0 178.5 33.5t55.5 116.5
q0 72 -56.5 105t-181.5 33h-168v-288z" />
    <glyph glyph-name="Identity.59026" 
d="M820 92q-106 -104 -256 -104q-160 0 -259.5 102.5t-99.5 275.5t100.5 276t264.5 103q136 0 227 -89l-47 -54q-76 71 -179 71q-128 0 -204.5 -83t-76.5 -222q0 -140 76 -223.5t202 -83.5q115 0 205 85z" />
    <glyph glyph-name="Identity.59027" 
d="M226 0v733h200q193 0 292.5 -94.5t99.5 -268.5q0 -175 -99.5 -272.5t-288.5 -97.5h-204zM307 69h113q154 0 233.5 78.5t79.5 222.5q0 143 -79 218.5t-234 75.5h-113v-595z" />
    <glyph glyph-name="Identity.59028" 
d="M283 0v733h476v-70h-395v-242h320v-71h-320v-279h407v-71h-488z" />
    <glyph glyph-name="Identity.59029" 
d="M302 0v733h477v-70h-394v-259h322v-71h-322v-333h-83z" />
    <glyph glyph-name="Identity.59030" 
d="M804 72q-94 -85 -253 -85q-167 0 -269.5 102.5t-102.5 276.5q0 173 105 276.5t272 103.5q142 0 239 -91l-48 -54q-79 72 -189 72q-132 0 -213 -83t-81 -222q0 -142 79.5 -225t216.5 -83q49 0 95 12.5t72 33.5v200h-191v69h268v-303z" />
    <glyph glyph-name="Identity.59031" 
d="M206 0v733h82v-311h424v311h82v-733h-82v350h-424v-350h-82z" />
    <glyph glyph-name="Identity.59032" 
d="M253 0v70h206v592h-206v71h495v-71h-207v-592h207v-70h-495z" />
    <glyph glyph-name="Identity.59033" 
d="M691 212q0 -100 -55 -162t-167 -62q-146 0 -222 116l60 44q57 -88 155 -88q145 0 145 160v513h84v-521z" />
    <glyph glyph-name="Identity.59034" 
d="M247 0v733h83v-384h3l379 384h97l-268 -278l307 -455h-93l-266 396l-159 -161v-235h-83z" />
    <glyph glyph-name="Identity.59035" 
d="M308 0v733h82v-663h382v-70h-464z" />
    <glyph glyph-name="Identity.59036" 
d="M159 0v733h101l175 -402l64 -155h4l63 155l173 402h102v-733h-77v423q0 53 10 213h-5l-70 -167l-171 -394h-58l-172 394l-69 167h-4q9 -144 9 -213v-423h-75z" />
    <glyph glyph-name="Identity.59037" 
d="M210 0v733h84l324 -471l100 -154h5q-10 104 -10 229v396h78v-733h-85l-324 472l-98 154h-5q9 -167 9 -225v-401h-78z" />
    <glyph glyph-name="Identity.59038" 
d="M853 369q0 -174 -97 -277.5t-256 -103.5q-157 0 -255 103.5t-98 277.5q0 173 97.5 274.5t255.5 101.5t255.5 -101.5t97.5 -274.5zM232 369q0 -140 73.5 -224.5t194.5 -84.5t194.5 84.5t73.5 224.5t-73 222t-195 82t-195 -82t-73 -222z" />
    <glyph glyph-name="Identity.59039" 
d="M257 0v733h229q151 0 230 -50t79 -163q0 -111 -80.5 -167t-224.5 -56h-150v-297h-83zM340 364h137q119 0 177 37.5t58 118.5t-58 113t-182 32h-132v-301z" />
    <glyph glyph-name="Identity.59040" 
d="M854 -98l17 -64q-41 -19 -117 -19q-110 0 -185 46t-112 125q-140 14 -225 116.5t-85 262.5q0 173 97.5 275t254.5 102t255 -102t98 -275q0 -158 -84 -259.5t-221 -117.5q28 -50 85 -76.5t133 -26.5q48 0 89 13zM499 56q121 0 194.5 85t73.5 228q0 140 -73.5 222
t-194.5 82t-194 -82.5t-73 -221.5q0 -143 73 -228t194 -85z" />
    <glyph glyph-name="Identity.59041" 
d="M818 0h-94l-215 316h-171v-316h-79v733h248q288 0 288 -203q0 -84 -53.5 -135.5t-148.5 -66.5zM338 665v-282h155q218 0 218 147q0 73 -54.5 104t-163.5 31h-155z" />
    <glyph glyph-name="Identity.59042" 
d="M787 191q0 -90 -75.5 -147t-201.5 -57q-175 0 -295 112l51 57q47 -44 112 -70t133 -26q85 0 139 33.5t54 90.5q0 29 -11 50.5t-35.5 38t-46.5 26.5t-60 24l-120 44q-173 61 -173 183q0 87 72 141.5t184 54.5q146 0 248 -92l-47 -55q-89 74 -202 74q-75 0 -123 -30.5
t-48 -82.5q0 -22 10 -40.5t23 -30.5t36 -24t38.5 -18t41.5 -15l119 -43q82 -29 129.5 -75.5t47.5 -122.5z" />
    <glyph glyph-name="Identity.59043" 
d="M458 0v663h-266v70h616v-70h-267v-663h-83z" />
    <glyph glyph-name="Identity.59044" 
d="M714 733h83v-435q0 -84 -23.5 -146t-65.5 -97t-93.5 -51.5t-114.5 -16.5q-62 0 -113 16.5t-92 51.5t-64 96.5t-23 146.5v435h81v-435q0 -127 58.5 -182.5t152.5 -55.5q95 0 154.5 55.5t59.5 182.5v435z" />
    <glyph glyph-name="Identity.59045" 
d="M453 0l-273 733h87l146 -405q82 -231 87 -243h4q7 18 87 243l146 405h84l-273 -733h-95z" />
    <glyph glyph-name="Identity.59046" 
d="M219 0l-187 733h85l99 -405l56 -237h4l66 237l122 405h76l124 -406l65 -236h6l51 236l100 406h80l-183 -733h-99l-138 456l-44 167h-4l-45 -167l-136 -456h-98z" />
    <glyph glyph-name="Identity.59047" 
d="M202 0l249 377l-233 356h92l124 -195l69 -105h4q41 70 64 105l121 195h88l-232 -358l251 -375h-95l-131 204q-14 23 -76 117h-4l-73 -117l-129 -204h-89z" />
    <glyph glyph-name="Identity.59048" 
d="M459 0v288l-255 445h88l119 -211l87 -161h4q64 111 90 161l119 211h85l-255 -445v-288h-82z" />
    <glyph glyph-name="Identity.59049" 
d="M218 0v50l455 613h-421v70h528v-48l-456 -615h467v-70h-573z" />
    <glyph glyph-name="Identity.59056" 
d="M258 139q0 90 93.5 137.5t305.5 64.5q-6 145 -149 145q-91 0 -192 -67l-34 57q46 31 110.5 54t128.5 23q107 0 162 -58t55 -159v-336h-68l-7 75h-3q-111 -87 -217 -87q-79 0 -132 40t-53 111zM338 145q0 -46 36 -69t90 -23q91 0 193 85v148q-175 -14 -247 -48t-72 -93z
" />
    <glyph glyph-name="Identity.59057" 
d="M785 279q0 -133 -77 -212t-190 -79q-100 0 -184 67h-5l-8 -55h-65v796h82v-222l-4 -100q110 79 206 79q119 0 182 -75t63 -199zM338 117q82 -61 167 -61q84 0 139.5 61t55.5 161q0 93 -44 149.5t-136 56.5q-84 0 -182 -78v-289z" />
    <glyph glyph-name="Identity.59058" 
d="M256 270q0 130 86.5 206.5t213.5 76.5q114 0 197 -79l-41 -53q-69 63 -153 63q-97 0 -158 -59.5t-61 -154.5q0 -96 60 -155t157 -59q91 0 172 70l37 -54q-92 -84 -214 -84q-130 0 -213 75.5t-83 206.5z" />
    <glyph glyph-name="Identity.59059" 
d="M666 65q-85 -78 -199 -78q-113 0 -182.5 75.5t-69.5 206.5q0 128 78 206.5t189 78.5q94 0 184 -64l-4 95v211h82v-796h-67l-8 65h-3zM300 270q0 -97 51.5 -155.5t135.5 -58.5q91 0 175 78v291q-78 60 -166 60q-83 0 -139.5 -61t-56.5 -154z" />
    <glyph glyph-name="Identity.59060" 
d="M235 270q0 126 84.5 204.5t198.5 78.5q118 0 186.5 -68.5t68.5 -183.5q0 -22 -4 -50h-451q3 -89 65 -143.5t160 -54.5q99 0 179 52l29 -56q-97 -61 -218 -61q-127 0 -212.5 76.5t-85.5 205.5zM318 311h380q0 85 -47.5 131t-131.5 46q-76 0 -133 -48t-68 -129z" />
    <glyph glyph-name="Identity.59061" 
d="M809 777l-20 -61q-57 25 -128 25q-141 0 -141 -147v-53h232v-67h-232v-474h-80v474h-156v61l156 6v50q0 102 53.5 159.5t160.5 57.5q80 0 155 -31z" />
    <glyph glyph-name="Identity.59062" 
d="M238 -100q0 68 90 122v5q-56 27 -56 88q0 55 68 101v5q-68 53 -68 139q0 85 64.5 139t155.5 54q48 0 83 -12h222v-63h-146q55 -46 55 -119q0 -85 -61 -136.5t-153 -51.5q-54 0 -104 22q-46 -30 -46 -65q0 -66 115 -66h135q105 0 154 -30t49 -96q0 -77 -82 -132t-214 -55
q-125 0 -193 39.5t-68 111.5zM492 226q59 0 99 37.5t40 96.5q0 58 -41 96t-98 38q-59 0 -100 -38t-41 -96q0 -59 40.5 -96.5t100.5 -37.5zM310 -94q0 -46 50 -73t144 -27t153 35.5t59 82.5q0 38 -31.5 54t-97.5 16h-121q-52 0 -83 9q-73 -41 -73 -97z" />
    <glyph glyph-name="Identity.59063" 
d="M266 0v796h81v-218l-2 -116q106 92 214 92q90 0 138 -53t48 -158v-343h-82v333q0 150 -132 150q-48 0 -90 -21t-94 -66v-396h-81z" />
    <glyph glyph-name="Identity.59064" 
d="M525 0v474h-251v67h332v-541h-81zM555 657q-29 0 -47 17.5t-18 45.5q0 29 18 46.5t47 17.5q28 0 46.5 -17.5t18.5 -46.5q0 -28 -18.5 -45.5t-46.5 -17.5z" />
    <glyph glyph-name="Identity.59065" 
d="M268 474v67h337v-562q0 -108 -51 -166t-172 -58q-82 0 -152 36l26 61q64 -31 126 -31q80 0 111 38t31 113v502h-256zM556 657q-29 0 -47 17.5t-18 45.5q0 29 18 46.5t47 17.5q28 0 46.5 -17.5t18.5 -46.5q0 -28 -18.5 -45.5t-46.5 -17.5z" />
    <glyph glyph-name="Identity.59066" 
d="M296 0v796h79v-552h4l286 296h92l-208 -216l239 -324h-91l-196 270l-126 -127v-143h-79z" />
    <glyph glyph-name="Identity.59067" 
d="M259 728v68h270v-625q0 -115 108 -115q43 0 105 24l21 -61q-86 -31 -142 -31q-173 0 -173 190v550h-189z" />
    <glyph glyph-name="Identity.59068" 
d="M82 0v541h67l8 -81h3q99 94 200 94q127 0 170 -105q113 105 211 105q183 0 183 -211v-343h-81v333q0 76 -31.5 113t-96.5 37q-77 0 -172 -87v-396h-81v333q0 150 -128 150q-81 0 -171 -87v-396h-81z" />
    <glyph glyph-name="Identity.59069" 
d="M265 0v541h66l8 -80h3q109 93 215 93q188 0 188 -211v-343h-85v333q0 77 -32 113.5t-99 36.5q-48 0 -89 -20.5t-94 -66.5v-396h-81z" />
    <glyph glyph-name="Identity.59070" 
d="M500 -12q-118 0 -200.5 76.5t-82.5 205.5q0 130 82 206.5t201 76.5t201 -76.5t82 -206.5q0 -129 -82.5 -205.5t-200.5 -76.5zM500 56q87 0 141.5 59t54.5 155q0 95 -54.5 154.5t-141.5 59.5t-141.5 -59.5t-54.5 -154.5q0 -96 54.5 -155t141.5 -59z" />
    <glyph glyph-name="Identity.59071" 
d="M256 -231v772h67l7 -64h4q112 77 206 77q118 0 180.5 -73.5t62.5 -202.5q0 -133 -77 -212t-189 -79q-91 0 -182 63l2 -70v-211h-81zM337 408v-291q81 -61 167 -61t140.5 60t54.5 161q0 98 -44 153t-136 55q-82 0 -182 -77z" />
    <glyph glyph-name="Identity.59072" 
d="M661 -231l1 196l4 99q-91 -77 -198 -77q-114 0 -183 74.5t-69 207.5q0 127 79 206t188 79q95 0 184 -65h4l9 52h64v-772h-83zM301 270q0 -100 50 -157t135 -57q92 0 176 78v291q-78 60 -167 60q-82 0 -138 -61t-56 -154z" />
    <glyph glyph-name="Identity.59073" 
d="M333 0v541h68l7 -129h3q43 67 106 104t138 37q62 0 110 -22l-22 -70q-50 19 -100 19q-137 0 -229 -158v-322h-81z" />
    <glyph glyph-name="Identity.59074" 
d="M249 71l40 55q98 -75 228 -75q72 0 111 25.5t39 63.5q0 35 -40 60.5t-140 50.5q-94 22 -151 60.5t-57 92.5q0 65 58.5 107t164.5 42q58 0 116 -19t100 -49l-40 -52q-81 56 -176 56q-139 0 -139 -81q0 -60 169 -101q117 -29 167 -65.5t50 -96.5q0 -67 -63 -112t-172 -45
q-148 0 -265 83z" />
    <glyph glyph-name="Identity.59075" 
d="M400 210v264h-156v61l159 6l10 153h68v-153h271v-67h-271v-267q0 -78 31.5 -115.5t109.5 -37.5q63 0 133 25l18 -60q-83 -31 -168 -31q-111 0 -158 57.5t-47 164.5z" />
    <glyph glyph-name="Identity.59076" 
d="M656 87q-100 -100 -213 -100q-90 0 -137.5 53.5t-47.5 157.5v343h82v-333q0 -77 32.5 -113t98.5 -36q49 0 91 22.5t90 72.5v387h82v-541h-67l-8 87h-3z" />
    <glyph glyph-name="Identity.59077" 
d="M455 0l-228 541h85l127 -315l61 -159h4l61 159l128 315h80l-223 -541h-95z" />
    <glyph glyph-name="Identity.59078" 
d="M258 0l-179 541h83l103 -322q5 -19 42 -149h5l45 148l104 323h82l105 -322q5 -14 46 -149h5l43 149l100 322h78l-173 -541h-100l-99 301l-47 157h-5q-18 -67 -48 -158l-95 -300h-95z" />
    <glyph glyph-name="Identity.59079" 
d="M244 0l206 282l-189 259h88l90 -123q8 -12 30.5 -43l34.5 -48h4l60 91l86 123h85l-190 -267l207 -274h-90l-98 131q-29 42 -73 98h-5l-66 -98l-94 -131h-86z" />
    <glyph glyph-name="Identity.59080" 
d="M539 -51q-78 -185 -222 -185q-38 0 -71 12l18 66q22 -10 49 -10q98 0 147 123l16 42l-251 544h86l136 -310l66 -152h5l56 152l120 310h81z" />
    <glyph glyph-name="Identity.59081" 
d="M253 0v44l375 430h-336v67h446v-44l-374 -431h386v-66h-497z" />
  </font>
</defs>
</svg>
